extratorrent.torrentlist.xyz - The Largest Bittorent SystemLogin   |   Register
Latest Articles
Most searched
Hot torrents
First Cams
View Torrent Info: Beauty and The Beast 2017 720p HD-TS x264-CPG
View Torrent Info: Kong.Skull.Island.2017.CAM.XviD-VAiN
View Torrent Info: The Shack 2017 HDCAM x264-iMLEAVING
View Torrent Info: T2.Trainspotting.2017.CAM.XViD-ETRG
Hot torrents
XVID DIVX
View Torrent Info: Prevenge.2016.HDRip.XViD-ETRG
View Torrent Info: Dig.Two.Graves.2014.HDRip.XViD-ETRG
View Torrent Info: Smoking.Guns.2016.DVDRip.XviD-EVO
View Torrent Info: Bitter.Harvest.2017.BRRip.XViD-ETRG
Hot torrents
H264 X264
View Torrent Info: Moana.2016.BluRay.1080p.DTS.AC3.x264-ETRG
View Torrent Info: Assassins.Creed.2016.BluRay.720p.DTS.AC3.x264-ETRG
View Torrent Info: From.a.House.on.Willow.Street.2016.720p.WEBRip.x264.AAC-ETRG
View Torrent Info: Hidden.Figures.2016.720p.BRRip.x264.AAC-ETRG
Hot torrents
BluRay, 4k UHD
View Torrent Info: Hunt for the WinderPeople 2016 Multi  Bluray 1080p x264 DTSHD 5.1 -DDR
View Torrent Info: Bitter Harvest (Holodomor) - Bluray 1080p x264 DTSHD 5.1 -DDR
View Torrent Info: Bad Santa-2 2016 Multi UHD 2160p BluRay HEVC HDR DTSHD 5.1 -DDR
View Torrent Info: The.Chamber.2016.BluRay.1080p.x264.DTSHD5.1-DDR
Hot torrents
Television
View Torrent Info: Samurai.Jack.S05E03.WEB-DL.x264-FUM[ettv]
View Torrent Info: Ghost.Adventures.S14E01.Stone.Lion.Inn.HDTV.x264-SPASM
View Torrent Info: The.Originals.S04E02.HDTV.x264-KILLERS[ettv]
View Torrent Info: Ransom.S01E11.HDTV.x264-KILLERS[ettv]
View Torrent Info: Fantastic.Beasts.And.Where.To.Find.Them.(2016).1080p.BDRip.Dual.Audio.Org.BD.{Hindi.5.1 Eng.5.1}.-~{DOOMSDAY}~-
View Torrent Info: Moana.(2016).1080p.BDRip.Dual.Audio.Org.BD.{Hindi.5.1 Eng.5.1}.-~{DOOMSDAY}~-
View Torrent Info: Kalpana 2 (2016) 720p UNCUT DVDRip x264 Eng Subs [Dual Audio] [Hindi DD 2.0 - Kannada 2.0] Exclusive By -=!Dr.STAR!=-
View Torrent Info: Trapped 2017 1GB DesiPDvD x264 -DDR
30s
Chat
To add new messages please Login or Register for FREE
Warning! Use a VPN When Downloading Torrents!
Your Internet Provider and Government can track your torrent activity!  Hide your IP ADDRESS with a VPN!
ExtraTorrent strongly recommends using Trust.Zone VPN to anonymize your torrenting. It's FREE!

HIDE ME NOW
Torrent Description
ddr_logo.png
3371d02ce08af8e25c27dde3c80633b7.md.jpg

HQ 1080p Blu-Ray Rip x264

English DTSHD-MA 5.1 Audio

Danish/Finish/Norwegian/Swedish Subs

SCREENSHOTS
22ebf9681cd198593fa4f3f473bee97a.th.png ee919e9016e517b5384224380297193a.th.png 44f4273196a7217a4477dd8b01eaa6fc.th.png f1d869dc5cc4bc63980d3638878bd7d9.th.png d49b2e8e883a3cdf9abccd532ecd0fbb.th.png 97f8212e73a249f26ece5a8c9c612db6.th.png 1c3dd622882822ca99d9deb1344f0498.th.png 0cbe40e5e28fc9688adf441e3a54ce02.th.png ad22b0cbb164a8a48fa9d4ec9de23508.th.png 9ad7485861979be571b8bb443197c000.th.png

SPECS


Source: Blu-ray

Format : Matroska
File size : 9.29 GiB
Duration : 1 h 36 min
Overall bit rate : 13.8 Mb/s

Video
Format : AVC
Format/Info : Advanced Video Codec
Format profile : [email protected]
Format settings, CABAC : Yes
Format settings, ReFrames : 5 frames
Codec ID : V_MPEG4/ISO/AVC
Duration : 1 h 36 min
Bit rate : 10.0 Mb/s
Width : 1 920 pixels
Height : 800 pixels
Display aspect ratio : 2.40:1
Frame rate mode : Constant
Frame rate : 25.000 FPS
Color space : YUV
Chroma subsampling : 4:2:0
Bit depth : 8 bits
Scan type : Progressive
Bits/(Pixel*Frame) : 0.260
Stream size : 6.74 GiB (72%)
Default : Yes
Forced : No
Color range : Limited
Color primaries : BT.709
Transfer characteristics : BT.709
Matrix coefficients : BT.709

Audio #1
Format : DTS
Format/Info : Digital Theater Systems
Format profile : MA / Core
Mode : 16
Format settings, Endianness : Big
Codec ID : A_DTS
Duration : 1 h 36 min
Bit rate mode : Variable / Constant
Bit rate : 3 722 kb/s / 1 509 kb/s
Channel(s) : 6 channels
Channel positions : Front: L C R, Side: L R, LFE
Sampling rate : 48.0 kHz
Frame rate : 93.750 FPS (512 spf)
Bit depth : 24 bits
Compression mode : Lossless / Lossy
Stream size : 2.51 GiB (27%)
Language : English
Default : Yes
Forced : No

Chapters : YES

SAMPLE Included

A DDR Exclusive Encode

Download Lady Bloodfight (2016)1080p Blu-Ray x264 DTSHD 5.1 -DDR torrent


Related Torrents


Comments (please add your comment)
1
posted by Site FriendET loverSupermanSunTurtle (2017-01-12 15:09:19)
enigmatic81 avatarThank you TeamDDR. Totally flawless encode.


2
posted by ET junkie (2017-01-13 13:55:51)
VasiL avatarThanks, waiting for a 720p XviD version..


3
posted by ET junkie (2017-01-13 17:02:51)
arif_raza avatarThanks TeamDDR looking good...





Home - Browse Torrents - Upload Torrent - Stat - Forum - FAQ - Login
extratorrent.torrentlist.xyz is in compliance with copyrights
BitCoin: 12DiyqsWhENahDzdhdYsRrCw8FPQVcCkcm
Can't load ExtraTorrent? Try our official mirrors: etmirror.com - etproxy.com - extratorrentonline.com - extratorrentlive.com
2006-2017 extratorrent.torrentlist.xyz2